iron man 3 full movie free  in utorrent

Iron Man 3 Full Movie Free Download In Utorrent > http://urlin.us/505yf






















































Iron Man 3 Full Movie Free Download In Utorrent

When Stark finds his personal. YTS 2011 - 2016 - Blog - API - RSS - DMCA - Contact - Browse Movies - Requests - Login .. So if you're looking for yet another superhero movies with larger than life baddies and plenty of high-tech, suit-wearing, destructive action, you may feel a little cheated. Blog at WordPress.com. This journey.

Please reload or try later. Reviewed by bowmanblue 8 / 10 A new type of Iron Man movie The third instalment of the highly-successful Iron Man franchise goes off in a different direction to its predecessors. AND ENJOY BY RV! CR Share this:TwitterFacebookLike this:Like Loading. %d bloggers like this:. Related This entry was posted in Movies by ravi. Fill in your details below or click an icon to log in: Email (required) (Address never made public) Name (required) Website You are commenting using your WordPress.com account. I'm gonna start again. Reviewed by YJLcool 8 / 10 An entertaining superhero film that surpassed its predecessors Iron Man 3 is a fast-paced, entertaining sci-fi action thriller that turned out better than its disappointing predecessor.

A villainous mad man known only as the Mandarin. You Can Also Download : .. Great round of applause for the people who's responsible for thinking up the various ways Tony can put on the suits in the film, well done!However, the film crossed the borderline of science fiction and science fantasy. So, in the end, does the suit make the man or does the man make the suit? Well, you damn well know what the answer is after finish watching this film. Iron Man 3Full HD Download. Theater in Los Angeles. for the Iron Man suit. Download Softwares, Hacking Tools, Movies,Games ,Etc& And Learn About Hacking RAVINDAR CR Author & Founder Haythem, better known by RV! CR is a Young Entrepreneur running Website . Some parts of this page won't work property.

Search Main menu Skip to primary content HomeAbout Post navigation ← Previous Next → IRON MAN III {2013} HD Full Movie Download1080P Posted on May 4, 2013 by ravi IRON MAN III {2013} HD1080P BY RV! CR IRON MAN III {2013} HD AVC 1080P AC3 $MURDER$ Complete name : Iron Man 3 {2013} HDCAM 1080P AC3 $MURDER$ Format : Matrosk Format version : Version 1 File size : 1.65 GiB Duration : 1h 58mn Overall bit rate : 1 998 Kbps Encoded date : UTC 2013-05-01 00:03:10 ENCODER : DOCMURDER82 Fumbling Towards Ecstasy Video ID : 1 Format : AVC Format/Info : Advanced Video Codec Format profile : HighL3.0 Format settings, CABAC : No Format settings, ReFrames : 1 frame Codec ID : VMPEG4/ISO/AVC Duration : 1h 58mn Bit rate : 1 800 Kbps Width : 1 920 pixels Height : 804 pixels Display aspect ratio : 2.40:1 Frame rate : 25.000 fps Color space : YUV Chroma subsampling : 4:2:0 Bit depth : 8 bits Scan type : Progressive Bits/(Pixel*Frame) : 0.047 Stream size : 1.46 GiB (88%) Writing library : x264 core Default : Yes Forced : No Audio ID : 2 Format : AC-3 Format/Info : Audio Coding 3 Mode extension : CM (complete main) Codec ID : AAC3 Duration : 1h 58mn Bit rate mode : Constant Bit rate : 192 Kbps Channel(s) : 2 channels Channel positions : Front: L R Sampling rate : 48.0 KHz Bit depth : 16 bits Compression mode : Lossy Stream size : 162 MiB (10%) Default : Yes Forced : No Click Here to Download [NOTE] 1. As he puts the pieces together and tries. Once again, Robert Downey Jr. There are things in the film that's simply could not happen in reality under any circumstances, which some movie-goers might find it hard to accept. Method Not Allowed .. the suit or does the suit make the man. As he fights his way back, Stark discovers the answer to the question that has secretly haunted him: does the man make the suit or does the suit make the man? Marvel's "Iron Man 3" pits brash-but-brilliant industrialist Tony Stark/Iron Man against an enemy whose reach knows no bounds. Use Torrent to download(HOW TO DOWNLOAD A TORRENT USING UTORRENT) 3.UseWinRAR5.00 BETA 2to Extract it. 51e7dc39b3
katti batti movie download blu-ray rip movies
kappahl film songs download starmusiq in rajini
le journal de bridget jones dvdrip download
roy film hindi song download
detective conan full movie download free
download film steve jobs sub indo
hero full movie hd download utorrent
kl gangster full movie download
oblivion original movie soundtrack download
student of the year movie download dvdrip divx